#TITLE:Ai No Corrida;
#SUBTITLE:;
#ARTIST:Lisa Milton;
#TITLETRANSLIT:;
#SUBTITLETRANSLIT:;
#ARTISTTRANSLIT:;
#CREDIT:Pop'nKO;
#BANNER:Ai No Corrida-banner.png;
#BACKGROUND:Ai No Corrida-bg.png;
#LYRICSPATH:;
#CDTITLE:;
#MUSIC:Ai No Corrida.mp3;
#MUSICLENGTH:92.839;
#OFFSET:-0.060;
#SAMPLESTART:60.005;
#SAMPLELENGTH:12.000;
#SELECTABLE:YES;
#BPMS:0.000=131.900;
#STOPS:;
#BGCHANGES:;
#FIRSTBEAT:15.500;

#LASTBEAT:200.000;

#SONGFILENAME:Songs/ERICth The 3rd/Ai No Corrida/Ai No Corrida.sm;

#HASMUSIC:1;

#HASBANNER:1;


//---------------dance-single - Hard----------------
#NOTES:
     dance-single:
     Hard:
     hard:
     7:
     0.494,0.485,0.226,0.129,0.167,288.000,21.000,12.000,0.000,0.000:
0000
0000
0000
0000
,
0000
0000
0000
0000
,
0000
0000
0000
0000
,
0000
0000
0000
0000
0000
0000
0000
1000
,
1000
0000
0020
0000
0100
0000
0031
0010
,
0010
0000
2000
0000
0001
0000
3010
1000
,
1000
0000
0002
0000
1000
0000
0103
0001
,
0001
0100
1000
0100
0001
0010
1000
0010
,
0010
0000
0001
0000
0010
0000
0000
0000
1000
0000
0100
0001
0000
0100
0001
0000
,
0001
0000
0100
0000
0001
0000
0000
0000
0010
0000
1000
0100
0000
1000
0100
0000
,
0100
0000
1000
0000
0100
0000
0000
0000
0001
0000
0010
1000
0000
0010
1000
0000
,
1000
0010
1000
0000
0101
0000
0100
1000
,
1100
0000
0100
0000
0001
0000
0000
0000
0010
0000
1000
0100
0000
1000
0100
0000
,
1000
0000
0010
0000
1000
0000
0000
0000
0100
0000
0001
0010
0000
0001
0010
0000
,
0001
0000
0100
0000
0001
0000
0000
0000
0010
0000
1000
0100
0000
1000
0100
0000
,
1000
0000
0010
0000
1000
0000
0000
0020
0000
0000
0001
0000
0000
0031
0000
0000
,
0010
0000
0000
0000
1000
0000
0000
0200
0000
0000
0001
0000
0000
0301
0000
0000
,
1001
0000
0100
0000
1100
0000
0010
0001
,
0100
0000
0010
0000
1010
0000
0100
0001
,
0010
0000
1000
0000
1100
0000
0001
0010
,
1000
0000
0001
0000
0011
0000
1000
0100
,
0001
0000
0000
0001
0000
0000
0010
0000
0000
0000
0100
0000
0100
0000
1000
0000
,
0010
0000
0000
0010
0000
0000
0100
0000
0000
0000
1000
0000
0001
0000
0000
0000
,
1000
0000
0000
1000
0000
0000
0100
0000
0000
0000
0010
0000
0010
0000
0001
0000
,
0100
0000
0000
0100
0000
0000
0010
0000
0001
0000
0000
0001
0000
0000
0010
0000
,
1000
0000
0000
1001
0000
0000
0100
0000
0000
0000
0010
0000
0010
0000
0001
0000
,
0100
0000
0000
0110
0000
0000
0010
0000
0000
0000
0001
0000
1000
0000
0000
0000
,
0001
0000
0000
1001
0000
0000
0010
0000
0000
0000
0100
0000
0100
0000
1000
0000
,
0010
0000
0000
0110
0000
0000
0100
0000
1000
0000
0000
1001
0000
0000
0001
0000
,
0110
0000
0000
0010
0000
0000
1010
0000
0000
0000
0001
0000
0001
0000
0100
0000
,
1010
0000
0000
1000
0000
0000
1001
0000
0000
0000
0100
0000
0010
0000
0000
0000
,
1100
0000
0000
0100
0000
0000
0101
0000
0000
0000
1000
0000
1000
0000
0010
0000
,
0101
0000
0000
0001
0000
0000
1001
0000
0010
0000
0000
0010
0000
0000
1000
0000
,
0101
0000
0020
0000
0100
0000
0031
0010
,
0010
0000
2000
0000
0001
0000
3010
1000
,
1000
0000
0002
0000
1000
0000
0103
0001
,
0001
0100
1000
0100
0001
0010
1000
0010
,
0010
0000
0200
0000
0010
0000
1300
0100
,
0100
0000
0002
0000
1000
0000
0103
0001
,
0001
0000
2000
0000
0001
0000
3010
1000
,
1000
0010
0001
0010
1000
0100
0001
0100
,
0100
0000
0010
0010
0100
0100
1000
0010
,
0010
0000
1000
1000
0001
0001
0010
1000
,
1000
0000
0001
0001
1000
1000
0100
0001
,
0001
0100
1000
0100
0001
0010
1000
0010
,
0010
0000
0100
0100
0010
0010
0001
0100
,
0100
0000
0001
0001
1000
1000
0010
0001
,
0001
0000
1000
1000
0001
0001
0010
1000
,
1000
0010
0001
0010
1000
0100
0001
0100
,
0200
0000
0300
0000
0001
0010
1000
0100
,
0001
0000
0000
0000
;
